What.We.Do.in.the.Shadows.S04E09.1080p.WEB.H264-PLZPROPER

seeders: 1075
leechers: 201
updated:
Added by prudence25 in TV > HD

Download Fast Safe Anonymous
movies, software, shows...

Files

What.We.Do.in.the.Shadows.S04E09.1080p.WEB.H264-PLZPROPER[rarbg]
  • RARBG.txt (0.0 KB)
  • RARBG_DO_NOT_MIRROR.exe (0.1 KB)
  • what.we.do.in.the.shadows.s04e09.1080p.web.h264-plzproper.mkv (841.7 MB)
  • what.we.do.in.the.shadows.s04e09.1080p.web.h264-plzproper.nfo (0.1 KB)

Description



Video
ID : 1
Format : AVC
Format/Info : Advanced Video Codec
Format profile : [email protected]
Format settings : CABAC / 4 Ref Frames
Format settings, CABAC : Yes
Format settings, Reference frames : 4 frames
Codec ID : V_MPEG4/ISO/AVC
Duration : 24 min 56 s
Bit rate : 4 368 kb/s
Width : 1 920 pixels
Height : 1 080 pixels
Display aspect ratio : 16:9
Frame rate mode : Constant
Frame rate : 23.976 (24000/1001) FPS
Color space : YUV
Chroma subsampling : 4:2:0
Bit depth : 8 bits
Scan type : Progressive
Bits/(Pixel*Frame) : 0.088
Stream size : 779 MiB (93%)
Default : Yes
Forced : No

Audio
ID : 2
Format : E-AC-3
Format/Info : Enhanced AC-3
Commercial name : Dolby Digital Plus
Codec ID : A_EAC3
Duration : 24 min 56 s
Bit rate mode : Constant
Bit rate : 256 kb/s
Channel(s) : 6 channels
Channel layout : L R C LFE Ls Rs
Sampling rate : 48.0 kHz
Frame rate : 31.250 FPS (1536 SPF)
Compression mode : Lossy
Delay relative to video : 6 ms
Stream size : 45.7 MiB (5%)
Language : English
Service kind : Complete Main
Default : Yes
Forced : No

Text
ID : 3
Format : UTF-8
Codec ID : S_TEXT/UTF8
Codec ID/Info : UTF-8 Plain Text
Title : English [SDH]
Language : English
Default : No
Forced : No



Download torrent
841.7 MB
seeders:1075
leechers:201
What.We.Do.in.the.Shadows.S04E09.1080p.WEB.H264-PLZPROPER


Trackers

tracker name
http://tracker.trackerfix.com:80/announce
udp://9.rarbg.me:2850/announce
udp://9.rarbg.to:2830/announce
udp://tracker.slowcheetah.org:14720/announce
udp://tracker.tallpenguin.org:15730/announce
µTorrent compatible trackers list

Download torrent
841.7 MB
seeders:1075
leechers:201
What.We.Do.in.the.Shadows.S04E09.1080p.WEB.H264-PLZPROPER


Torrent hash: 4130195F3B98EE962B24BEF22578A2F67F320088