Yamla Pagla Deewana Phir Se (2018) 720p HDRip x264 AAC by Full4movies

seeders: 6
leechers: 8
updated:
Added by shmasti in Movies > HD

Download Fast Safe Anonymous
movies, software, shows...
Summary:

The flick marks the return of Deol trio - Dharmendra, Sunny Deol, and Bobby Deol - on the silver screen after five years. The film revolves around the trio of father and his two sons. While the father (essayed by Dharmendra) and one of his sons (Bobby) are con-men, the other son (Sunny) plays a righteous and strong man.

Files

  • Yamla Pagla Deewana Phir Se (2018) 720p HDRip x264 AAC by Full4movies.mkv (1.3 GB)

Description



General
Complete name : Yamla Pagla Deewana Phir Se (2018) 720p HDRip x264 AAC by Full4movies.mkv
Format : Matroska
Format version : Version 4 / Version 2
File size : 1.29 GiB
Duration : 2 h 19 min
Overall bit rate : 1 319 kb/s
Movie name : www.Full4movies.co
Encoded date : UTC 2018-11-15 05:48:33
Writing application : mkvmerge v8.1.0 ('Psychedelic Postcard') 32bit
Writing library : libebml v1.3.1 + libmatroska v1.4.2

Video
ID : 1
Format : AVC
Format/Info : Advanced Video Codec
Format profile : [email protected]
Format settings, CABAC : Yes
Format settings, RefFrames : 4 frames
Codec ID : V_MPEG4/ISO/AVC
Duration : 2 h 19 min
Bit rate : 1 219 kb/s
Width : 1 280 pixels
Height : 544 pixels
Display aspect ratio : 2.35:1
Frame rate mode : Constant
Frame rate : 25.000 FPS
Color space : YUV
Chroma subsampling : 4:2:0
Bit depth : 8 bits
Scan type : Progressive
Bits/(Pixel*Frame) : 0.070
Stream size : 1.21 GiB (94%)
Writing library : x264 core 155 r2901 7d0ff22
Default : Yes
Forced : No
Color range : Limited
Color primaries : BT.709
Transfer characteristics : BT.709
Matrix coefficients : BT.709

Audio
ID : 2
Format : AAC
Format/Info : Advanced Audio Codec
Format profile : LC
Codec ID : A_AAC
Duration : 2 h 19 min
Bit rate : 79.7 kb/s
Channel(s) : 2 channels
Channel positions : Front: L R
Sampling rate : 48.0 kHz
Frame rate : 46.875 FPS (1024 SPF)
Compression mode : Lossy
Delay relative to video : -21 ms
Stream size : 79.7 MiB (6%)
Language : Hindi
Default : Yes
Forced : No

Screen Shoots

Related Torrents

torrent name size uploader age seed leech
1.2 GB mkvCinemas 4
years
227 336
705 MB 300movieshub 4
years
202 277
1.2 GB BDMovieHD 4
years
193 83
1.1 GB downloadhub 4
years
133 234
1.3 GB mkvCinemas 4
years
103 147


Download torrent
1.3 GB
seeders:6
leechers:8
Yamla Pagla Deewana Phir Se (2018) 720p HDRip x264 AAC by Full4movies


Trackers

tracker name
udp://tracker.coppersurfer.tk:6969/announce
udp://tracker.leechers-paradise.org:6969/announce
udp://tracker.pirateparty.gr:6969/announce
udp://tracker.coppersurfer.tk:6969
udp://open.demonii.si:1337/announce
udp://tracker.tiny-vps.com:6969/announce
udp://9.rarbg.me:2710/announce
udp://9.rarbg.to:2710/announce
udp://public.popcorn-tracker.org:6969/announce
udp://tracker.torrent.eu.org:451/announce
udp://tracker.vanitycore.co:6969/announce
udp://ipv4.tracker.harry.lu:80/announce
udp://tracker.opentrackr.org:1337/announce
udp://exodus.desync.com:6969/announce
udp://tracker.cypherpunks.ru:6969/announce
µTorrent compatible trackers list

Download torrent
1.3 GB
seeders:6
leechers:8
Yamla Pagla Deewana Phir Se (2018) 720p HDRip x264 AAC by Full4movies


Torrent hash: 21024C6A61FFD47F253FBA8216ED5B7CF4503B39