Yamla Pagla Deewana Phir Se (2018) 720p WEB-Rip x264 AAC ~ Ranvijay

seeders: 3
leechers: 6
updated:

Download Fast Safe Anonymous
movies, software, shows...
Summary:

The flick marks the return of Deol trio - Dharmendra, Sunny Deol, and Bobby Deol - on the silver screen after five years. The film revolves around the trio of father and his two sons. While the father (essayed by Dharmendra) and one of his sons (Bobby) are con-men, the other son (Sunny) plays a righteous and strong man.

Files

Yamla Pagla Deewana Phir Se (2018) 720p WEB-Rip x264 AAC ~ Ranvijay
  • SpecialRDP - Premium & Affordable Web Hosting Solution.url (0.0 KB)
  • Sample - Yamla Pagla Deewana Phir Se (2018) 720p WEB-Rip ~ Ranvijay.mkv (15.1 MB)
  • Yamla Pagla Deewana Phir Se (2018) 720p WEB-Rip x264 AAC ~ Ranvijay.mkv (1.5 GB)

Description







Yamla Pagla Deewana Phir Se (2018) 720p WEB-Rip x264 AAC ~ Ranvijay


Buy RDP Online




Source : DTOne
Format : Matroska
Format version : Version 4 / Version 2
File size : 1.45 GiB
Duration : 2 h 19 min
Overall bit rate : 1 487 kb/s
Movie name : Yamla Pagla Deewana Phir Se (2018) 720p WEB-Rip x264 AAC ~ Ranvijay

Video
ID : 1
Format : AVC
Format/Info : Advanced Video Codec
Duration : 2 h 19 min
Bit rate : 1 390 kb/s
Width : 1 280 pixels
Height : 544 pixels
Display aspect ratio : 2.35:1
Frame rate mode : Constant
Frame rate : 25.000 FPS
Color space : YUV
Chroma subsampling : 4:2:0
Bit depth : 8 bits
Scan type : Progressive
Bits/(Pixel*Frame) : 0.080
Stream size : 1.36 GiB (93%)
Title : ~Ranvijay~

Audio
ID : 2
Format : AAC
Format/Info : Advanced Audio Codec
Format profile : LC
Codec ID : A_AAC-2
Duration : 2 h 19 min
Bit rate : 96.0 kb/s
Channel(s) : 2 channels
Channel positions : Front: L R
Sampling rate : 48.0 kHz
Frame rate : 46.875 FPS (1024 SPF)
Compression mode : Lossy
Stream size : 94.8 MiB (6%)
Title : ~Ranvijay~
Language : Hindi
Default : Yes
Forced : Yes













Don't walk as you are king, walk as you don't care who the king is....!!

Related Torrents

torrent name size uploader age seed leech
1.2 GB mkvCinemas 4
years
227 336
705 MB 300movieshub 4
years
202 277
1.2 GB BDMovieHD 4
years
193 83
1.1 GB downloadhub 4
years
133 234
1.3 GB mkvCinemas 4
years
103 147


Download torrent
1.5 GB
seeders:3
leechers:6
Yamla Pagla Deewana Phir Se (2018) 720p WEB-Rip x264 AAC ~ Ranvijay


Trackers

tracker name
udp://tracker.leechers-paradise.org:6969/announce
udp://9.rarbg.com:2720/announce
udp://9.rarbg.me:2730/announce
udp://eddie4.nl:6969/announce
udp://tracker.blackunicorn.xyz:6969/announce
udp://tracker.opentrackr.org:1337/announce
http://glotorrents.pw:80/announce
udp://coppersurfer.tk:6969/announce
udp://p4p.arenabg.ch:1337/announce
udp://p4p.arenabg.com:1337/announce
http://tracker.aletorrenty.pl:2710/announce
udp://zer0day.ch:1337/announce
udp://tracker.sktorrent.net:6969/announce
udp://thetracker.org:80/announce
udp://tracker.coppersurfer.tk:6969/announce
udp://explodie.org:6969/announce
udp://tracker.coppersurfer.tk:6969/announce
µTorrent compatible trackers list

Download torrent
1.5 GB
seeders:3
leechers:6
Yamla Pagla Deewana Phir Se (2018) 720p WEB-Rip x264 AAC ~ Ranvijay


Torrent hash: 757CBB6930ADFB5CD45B9B76310141CD322E3EE7