Yamla Pagla Deewana Phir Se (2018) Hindi 720p WEB-HD x264 AC3-Sun George

seeders: 17
leechers: 15
updated:
Added by Sungeorge in Movies > Bollywood

Download Fast Safe Anonymous
movies, software, shows...
Summary:

The flick marks the return of Deol trio - Dharmendra, Sunny Deol, and Bobby Deol - on the silver screen after five years. The film revolves around the trio of father and his two sons. While the father (essayed by Dharmendra) and one of his sons (Bobby) are con-men, the other son (Sunny) plays a righteous and strong man.

Files

Yamla Pagla Deewana Phir Se (2018) Hindi 720p WEB-HD x264 AC3-Sun George
  • Yamla Pagla Deewana Phir Se (2018) Hindi 720p WEB-HD x264 AC3-Sun George.mkv (1.5 GB)
  • Sample Yamla Pagla Deewana Phir Se (2018) Hindi 720p WEB-HD x264 AC3-Sun George.mkv (17.6 MB)
  • INFO.NFO (0.1 KB)

Description

Yamla Pagla Deewana Phir Se (2018) Hindi 720p WEB-HD x264 AC3-Sun George



https://www.imdb.com/title/tt7609114/






===================================================================


General
Format : Matroska
Format version : Version 4 / Version 2
File size : 1.48 GiB
Duration : 2 h 19 min
Overall bit rate : 1 512 kb/s
Movie name : Yamla Pagla Deewana Phir Se (2018) Hindi 720p WEB-HD x264 AC3-Sun George


===================================================================


Video
ID : 1
Format : AVC
Format/Info : Advanced Video Codec
Format profile : [email protected]
Format settings : CABAC / 5 Ref Frames
Format settings, CABAC : Yes
Format settings, RefFrames : 5 frames
Codec ID : V_MPEG4/ISO/AVC
Duration : 2 h 19 min
Bit rate : 1 300 kb/s
Width : 1 280 pixels
Height : 720 pixels
Display aspect ratio : 16:9
Frame rate mode : Constant
Frame rate : 25.000 FPS
Color space : YUV
Chroma subsampling : 4:2:0
Bit depth : 8 bits
Scan type : Progressive
Bits/(Pixel*Frame) : 0.056
Stream size : 1.29 GiB (87%)
Title : Sun George


===================================================================


Audio
ID : 2
Format : AC-3
Format/Info : Audio Coding 3
Codec ID : A_AC3
Duration : 2 h 19 min
Bit rate mode : Constant
Bit rate : 192 kb/s
Channel(s) : 2 channels
Channel positions : Front: L R
Sampling rate : 48.0 kHz
Frame rate : 31.250 FPS (1536 SPF)
Bit depth : 16 bits
Compression mode : Lossy
Stream size : 192 MiB (13%)
Title : Sun George
Language : Hindi
Service kind : Complete Main
Default : Yes
Forced : No















Related Torrents

torrent name size uploader age seed leech
1.2 GB mkvCinemas 4
years
227 336
705 MB 300movieshub 4
years
202 277
1.2 GB BDMovieHD 4
years
193 83
1.1 GB downloadhub 4
years
133 234
1.3 GB mkvCinemas 4
years
103 147


Download torrent
1.5 GB
seeders:17
leechers:15
Yamla Pagla Deewana Phir Se (2018) Hindi 720p WEB-HD x264 AC3-Sun George


Trackers

tracker name
udp://tracker.publicbt.com:80/announce
udp://tracker.pirateparty.gr:6969/announce
udp://tracker.tiny-vps.com:6969/announce
udp://9.rarbg.me:2800/announce
udp://9.rarbg.to:2720/announce
udp://public.popcorn-tracker.org:6969/announce
udp://open.stealth.si:80/announce
udp://tracker.vanitycore.co:6969/announce
udp://tracker.opentrackr.org:1337/announce
udp://bt.firebit.co.uk:6969/announce
udp://shadowshq.yi.org:6969/announce
udp://tracker.zer0day.to:1337/announce
udp://coppersurfer.tk:6969/announce
udp://tracker.trackerfix.com:80/announce
UDP://TRACKER.COPPERSURFER.TK:6969/ANNOUNCE
µTorrent compatible trackers list

Download torrent
1.5 GB
seeders:17
leechers:15
Yamla Pagla Deewana Phir Se (2018) Hindi 720p WEB-HD x264 AC3-Sun George


Torrent hash: FE096D2B0482740C274C5E12ABE1072CD5B200F5