Law and Order SVU S17E23 720p HDTV x264-SVA[rartv]

seeders: 28
leechers: 4
updated:
Added by z0n3212.58M in TV
Torrent verified. Downloaded 4,800 times.

DownloadFast Safe Anonymous
movies, software, shows...
Available in versions: 1080p720p480pHDTVWEBRipx264x265
Law and Order SVU S17E23 720p HDTV x264-SVA[rartv] (Size: 871.36 MB)
  Law.and.Order.SVU.S17E23.720p.HDTV.x264-SVA.mkv 871.36 MB
  rarbg.com.txt 34 bytes
  Law.and.Order.SVU.S17E23.720p.HDTV.x264-SVA.nfo 65 bytes

Description


https://rarbg.to
Law.and.Order.SVU.S17E23.720p.HDTV.x264-SVA[rartv]

image
Screens :

image
Mediainfo :

Video
ID : 1
Format : AVC
Format/Info : Advanced Video Codec
Format profile : [email protected]
Format settings, CABAC : Yes
Format settings, ReFrames : 5 frames
Codec ID : V_MPEG4/ISO/AVC
Duration : 41mn 6s
Bit rate : 2 520 Kbps
Width : 1 280 pixels
Height : 720 pixels
Display aspect ratio : 16:9
Frame rate mode : Constant
Frame rate : 23.976 (24000/1001) fps
Color space : YUV
Chroma subsampling : 4:2:0
Bit depth : 8 bits
Scan type : Progressive
Bits/(Pixel*Frame) : 0.114
Stream size : 741 MiB (85%)
Writing library : x264 core 148 r2692 64f4e24
Encoding settings : cabac=1 / ref=5 / deblock=1:0:0 / analyse=0x3:0x113 / me=umh / subme=8 / psy=1 / psy_rd=1.00:0.00 / mixed_ref=1 / me_range=16 / chroma_me=1 / trellis=1 / 8x8dct=1 / cqm=0 / deadzone=21,11 / fast_pskip=1 / chroma_qp_offset=-2 / threads=22 / lookahead_threads=3 / sliced_threads=0 / nr=0 / decimate=1 / interlaced=0 / bluray_compat=0 / constrained_intra=0 / bframes=3 / b_pyramid=2 / b_adapt=2 / b_bias=0 / direct=3 / weightb=1 / open_gop=0 / weightp=2 / keyint=250 / keyint_min=23 / scenecut=40 / intra_refresh=0 / rc_lookahead=50 / rc=crf / mbtree=1 / crf=18.0 / qcomp=0.60 / qpmin=0 / qpmax=69 / qpstep=4 / ip_ratio=1.40 / aq=1:1.00
Default : Yes
Forced : No
Color range : Limited
Matrix coefficients : BT.709

Audio
ID : 2
Format : AC-3
Format/Info : Audio Coding 3
Mode extension : CM (complete main)
Format settings, Endianness : Big
Codec ID : A_AC3
Duration : 41mn 6s
Bit rate mode : Constant
Bit rate : 384 Kbps
Channel(s) : 6 channels
Channel positions : Front: L C R, Side: L R, LFE
Sampling rate : 48.0 KHz
Frame rate : 31.250 fps (1536 spf)
Compression mode : Lossy
Stream size : 113 MiB (13%)
Default : Yes
Forced : No

Related Torrents

torrent name size files age seed leech

Sharing Widget


Download torrent
871.36 MB
seeders:28
leechers:4
Law and Order SVU S17E23 720p HDTV x264-SVA[rartv]



To share this torrent use the code below and insert it into comments, status messages, forum posts or your signature.

Torrent: Law and Order SVU S17E23 720p HDTV x264-SVA[rartv]

Trackers

tracker name
udp://tracker.openbittorrent.com:80/announce
http://retracker.krs-ix.ru/announce
udp://tracker.coppersurfer.tk:6969/announce
udp://glotorrents.pw:6969/announce
http://tracker1.wasabii.com.tw:6969/announce
http://thetracker.org/announce
http://tracker.mg64.net:6881/announce
http://explodie.org:6969/announce
udp://tracker.opentrackr.org:1337/announce
udp://zer0day.ch:1337/announce
µTorrent compatible trackers list

Locations

name
KickassTorrents
Torrent hash: 3C29CAF835CE2A7BA87BDD49BDA9FD8DB186C4DC

All Comments

audio
9/10
video
9/10
please, leave only comments related to that torrent
Sign In

audio: 9video: 9
Thanks copy looks good
does the end cut before the end like avs does?

User Opinions

BJthe1DJ98.49K, the-toerag5987, venuscat5586, oldmacdonald3206, fnkono2794, Nattacker2419, rurocking2379, d0ct0rd00m1850, rattlesnail176, infinityinc95 ... And 36 more
navarroslady207
Report a bug Open chat